» » Russ Taff - Walls Of Glass
Russ Taff - Walls Of Glass Mp3
Rock / Pop
Performer: Russ Taff
Title: Walls Of Glass
Style: Religious, Pop Rock, AOR
Year 1983
Country US
Label Myrrh
Catalog Number 7-01-670661-3
Genre: Rock / Pop
Rating: 4.4
Votes: 043
MP3 size: 1062 mb
FLAC size: 2207 mb
WMA size: 2525 mb
Record From: CD, Album

Russ Taff - Walls Of Glass Mp3

Tracklist

1Unto The Lamb
Backing Vocals – Dony McGuire, Laury Boone, Reba Rambo, Russ TaffMusic By – Bill GeorgePiano – Robbie BuchananSynthesizer – Robbie BuchananWords By – Russ Taff, Tori Taff
2:42
2I Want To Change
Backing Vocals – Charlotte Crossley, David Lasley, Joann HarrisBass – Richard HopkinsDrums – John Hammond Guitar – James HollihanKeyboards [Rhodes] – Bill GeorgeMusic By – James HollihanPercussion – Lenny CastroPiano – Robbie BuchananProducer [Vocal] – Jack Joseph Puig, Russ TaffSaxophone [Sax Solo] – Ernie WattsSynthesizer – Robbie BuchananWords By – Russ Taff, Tori Taff
5:05
3Just Believe
Backing Vocals – Bill Champlin, Bonnie Bramlett, Russell TaffBass – Nathan EastDrums – Jeff PorcaroGuitar – Michael LandauHorns – Charlie Loper, Ernie Watts, Gary Grant, Jerry HeyKeyboards [Rhodes] – Michael OmartianMusic By – James HollihanPercussion – Lenny CastroPiano – Michael OmartianSynthesizer – Michael OmartianWords By – Russ Taff, Tori Taff
4:26
4Pure In Heart
Backing Vocals – Charlotte Crossley, David Lasley, Joann HarrisBass – Abraham LaborielDrums – Mike BairdGuitar – Marty Walsh, Michael LandauKeyboards [Rhodes] – Robbie BuchananMusic By – Robbie BuchananPercussion – Lenny CastroPiano – Robbie BuchananSynthesizer – Robbie BuchananWords By – Raymond Brown, Russ Taff, Tori Taff
3:59
5We Will Stand (You're My Brother, You're My Sister)
Backing Vocals – Arnold McCuller, Bobby Messano, Cynthia Clawson, David Lasley, Don Cason, Franke Previte, Gary Whitlock, Harry Browning, Laury Boone, Ragan Courtney, Russell Taff, Susan Pyron Heard, Tori TaffBass – Abraham LaborielDrums – Mike BairdGuitar – Michael LandauKeyboards [Rhodes] – Robbie BuchananMusic By – James HollihanPercussion – Lenny CastroPiano – Robbie BuchananSynthesizer – James Newton HowardWords By – Russ Taff, Tori Taff
4:37
6Jeremiah
Backing Vocals – Bill Champlin, Bonnie Bramlett, Tamara ChamplinBass – Nathan EastDrums – Jeff PorcaroGuitar – Michael LandauKeyboards [Rhodes] – Michael OmartianMusic By – Michael OmartianPercussion – Lenny CastroPiano – Michael OmartianSynthesizer – Michael OmartianWords By – Stormie Omartian
4:02
7Kathryn's Song
Piano – James Newton HowardWritten-By – Patti Roberts
4:24
8Walls Of Glass
Backing Vocals – Bill Champlin, Carmen Twillie, Tamara ChamplinBass – Nathan EastDrums – Jeff PorcaroGuitar – Michael LandauHorns – Charlie Loper, Ernie Watts, Gary Grant, Jerry HeyMusic By – Keith ThomasPercussion – Lenny CastroPiano – James Newton HowardSynthesizer – James Newton HowardWords By – Raymond Brown, Russ Taff, Tori Taff
3:57
9Tell Them
Backing Vocals – Arnold McCuller, David Lasley, Russell TaffBass [Synthesizer Bass] – Robbie BuchananDrums – Mike BairdGuitar – Marty Walsh, Michael LandauKeyboards [Rhodes] – Robbie BuchananMusic By – James HollihanPercussion – Lenny CastroSynthesizer – Robbie BuchananWords By – Russ Taff, Tori Taff
4:23
10Inside Look
Backing Vocals – Charlotte Crossley, David Lasley, Joann HarrisBass – Nathan EastDrums – Jeff PorcaroGuitar – Michael LandauHarmony Vocals – Franke PreviteMusic By – James Newton HowardPercussion – Lenny CastroPiano – James Newton HowardSynthesizer – James Newton HowardWords By – James Hollihan, Russ Taff, Tori Taff
4:01

Versions

CategoryArtistTitle (Format)LabelCategoryCountryYear
MSB 6706Russ Taff Walls Of Glass ‎(LP, Album)MyrrhMSB 6706US1983
7016706613Russ Taff Walls Of Glass ‎(CD, Album, RP)Myrrh7016706613USA & CanadaUnknown
COOL-072Russ Taff Walls Of Glass ‎(CD, Album)Cool SoundCOOL-072Japan2001
L 38386Russ Taff Walls Of Glass ‎(LP, Album)Horizon L 38386Australia1983
MB-6706Russ Taff Walls Of Glass ‎(Cass, Album)MyrrhMB-6706US1983

Credits

  • Arranged By [Horns]Jerry Hey
  • Co-producer [Production Assistant]Janet Heard
  • EngineerBill Schnee
  • Engineer [Additional]Jack Joseph Puig
  • Engineer [Assistant]Daniel Garcia
  • Engineer [Assitant]David Schober
  • Mastered ByDoug Sax
  • ProducerBill Schnee

Notes

Folded booklet with lyrics and credits. Made in Japan

Barcodes

  • Barcode (Printed): 0 8068-80208-2 8
  • Barcode (Scanned): 080688020828

Companies

  • Manufactured By – Word, Inc.
  • Phonographic Copyright (p) – Word, Inc.
  • Copyright (c) – Word, Inc.

Video

Hirah
foobar2000 1.3.17 / Dynamic Range Meter 1.1.1
log date: 2018-06-14 22:09:57

--------------------------------------------------------------------------------
Analyzed: Russ Taff / Walls Of Glass
--------------------------------------------------------------------------------

DR Peak RMS Duration Track
--------------------------------------------------------------------------------
DR13 -2.38 dB -18.04 dB 4:26 01-Tell Them
DR15 -1.50 dB -19.53 dB 4:01 02-Walls Of Glass
DR13 -3.76 dB -20.62 dB 5:09 03-I Want To Change
DR13 -4.03 dB -19.91 dB 4:02 04-Pure In Heart
DR13 -4.51 dB -21.32 dB 4:40 05-We Will Stand
DR15 -1.40 dB -19.07 dB 4:05 06-Jeremiah
DR14 -1.43 dB -17.12 dB 4:03 07-Inside Look
DR14 -2.89 dB -20.04 dB 4:31 08-Just Believe
DR11 -8.75 dB -24.82 dB 4:27 09-Kathryn's Song
DR11 -6.89 dB -21.64 dB 2:47 10-Unto The Lamb
--------------------------------------------------------------------------------

Number of tracks: 10
Official DR value: DR13

Samplerate: 44100 Hz
Channels: 2
Bits per sample: 16
Bitrate: 725 kbps
Codec: ALAC
================================================================================